Человек меняет кожу (1960) VHSRip от New-Team скачать торрент



Мы В КОНТАКТЕ

Снималось в: СССР
Создали в: Таджикфильм
Категория жанра: драма, шпионский фильм
Создали в: 1960
Время просмотра: 02: 43: 22
Перевод текста: Не требуется
Субтитры подготовлены: нет
Оригинальная аудиодорожка: русский
Главный режиссер: Рафаил Перельштейн

Актеры

Гурминдж Завкибеков, Сергей Курилов, Изольда Извицкая, Сергей Столяров, Владимир Емельянов, Сергей Голованов, Джахон Саидмурадов, Борис Виноградов, Асли (Аслиддин) Бурханов, Наталья Медведева, Юрий Киреев, Григорий Кириллов, Алексей Преснецов, Нинель Мышкова, Павел Волков, Владимир Иванов, Николай Бармин, Абдульхайр Касымов, Николай Волчков, Борис Шлихтинг...
Об актёрах подробней
Описание:
По мотивам одноименного романа Бруно Ясенского.
Идет строительство Вахшского канала — одной из крупнейших новостроек первой пятилетки. Сюда прибывают по контракту два американца. Матерый шпион полковник Бейли, представившийся безобидным путешественником мистером Мурри, позже будет пойман с поличным и разоблачен.



Исходник: VHS
Качество фильма видео: VHSRip
Тип видео видео: AVI
Информация о видео: 672x448 (3: 2), 25, 000 кадров/сек, XviD ~ 1078 kbps avg, 0.143 bit/pixel
Информация о звуке: 48 kHz, Dolby Digital AC3 2.0, 192 kbps
Раздача от:
MediaInfo

Общее
Полное имя : Chelovek.menyaet.kozhu.1960.VHSRip_New-team_by_AVP_Studio.avi
Формат : AVI
Формат/Информация : Audio Video Interleave
Размер файла : 1, 46 Гбайт
Продолжительность : 2 ч. 43 м.
Общий поток : 1280 Кбит/сек
Программа кодирования : VirtualDubMod 1.5.10.3 | www.virtualdub-fr.org || (build 2550/release)
Библиотека кодирования : VirtualDubMod build 2550/release
Видео
Идентификатор : 0
Формат : MPEG-4 Visual
Профиль формата : Advanced [email protected]
Настройки формата : BVOP1/Custom Matrix
Параметр BVOP формата : 1
Параметр QPel формата : Нет
Параметр GMC формата : Без точки перехода
Параметр матрицы формата : Выборочная
Идентификатор кодека : XVID
Идентификатор кодека/Подсказка : XviD
Продолжительность : 2 ч. 43 м.
Битрейт : 1078 Кбит/сек
Ширина : 672 пикселя
Высота : 448 пикселей
Соотношение сторон : 3: 2
Частота кадров : 25, 000 кадров/сек
Цветовое пространство : YUV
Субдискретизация насыщенности : 4: 2: 0
Битовая глубина : 8 бит
Тип развёртки : Прогрессивная
Метод сжатия : С потерями
Бит/(Пиксели*Кадры) : 0.143
Размер потока : 1, 23 Гбайт (84%)
Библиотека кодирования : XviD 73
Аудио
Идентификатор : 1
Формат : AC-3
Формат/Информация : Audio Coding 3
Идентификатор кодека : 2000
Продолжительность : 2 ч. 43 м.
Вид битрейта : Постоянный
Битрейт : 192 Кбит/сек
Каналы : 2 канала
Расположение каналов : Front: L R
Частота : 48, 0 КГц
Частота кадров : 31, 250 кадров/сек (1536 SPF)
Битовая глубина : 16 бит
Метод сжатия : С потерями
Размер потока : 224 Мбайт (15%)
Выравнивание : Разделение по промежуткам
Продолжительность промежутка : 40 мс. (1, 00 видеокадр)
Время предзагрузки промежутка : 500 мс

Скриншоты



Залил: AVPStudio

Онлайн видео Человек меняет кожу (1960) VHSRip от New


Размер скачиваемого торрента: 1.46 GB (1567713280 Bytes)
Скачать торрент chelovek-menyaet-koju-1960-vhsrip.torrent
Support: [email protected]